Posted : 5 Days ago

  1. Kill.Dil.2014.720p.BluRay.DD5.1.x264-Positive.mkv
  2. General
  3. Unique ID                                : 225315487101064450878931852521604570143 (0xA9822F31D6764C5BA6ECEB555B82DC1F)
  4. Complete name                            : D:\Kill.Dil.2014.720p.BluRay.DD5.1.x264-Positive.mkv
  5. Format                                   : Matroska
  6. Format version                           : Version 4
  7. File size                                : 5.89 GiB
  8. Duration                                 : 1 h 58 min
  9. Overall bit rate                         : 7 140 kb/s
  10. Movie name                               : Kill Dil (2014)
  11. Encoded date                             : UTC 2015-02-11 07:10:55
  12. Writing application                      : mkvmerge v7.5.0 ('Glass Culture') 64bit built on Jan  4 2015 16:48:44
  13. Writing library                          : libebml v1.3.1 + libmatroska v1.4.2
  14.  
  15. Video
  16. ID                                       : 1
  17. Format                                   : AVC
  18. Format/Info                              : Advanced Video Codec
  19. Format profile                           : [email protected]
  20. Format settings                          : CABAC / 12 Ref Frames
  21. Format settings, CABAC                   : Yes
  22. Format settings, Reference frames        : 12 frames
  23. Codec ID                                 : V_MPEG4/ISO/AVC
  24. Duration                                 : 1 h 58 min
  25. Bit rate                                 : 6 499 kb/s
  26. Width                                    : 1 280 pixels
  27. Height                                   : 544 pixels
  28. Display aspect ratio                     : 2.35:1
  29. Frame rate mode                          : Constant
  30. Frame rate                               : 24.000 FPS
  31. Color space                              : YUV
  32. Chroma subsampling                       : 4:2:0
  33. Bit depth                                : 8 bits
  34. Scan type                                : Progressive
  35. Bits/(Pixel*Frame)                       : 0.389
  36. Stream size                              : 5.36 GiB (91%)
  37. Title                                    : Kill Dil (2014)
  38. Writing library                          : x264 core 142 r2431 ac76440
  39. Encoding settings                        : cabac=1 / ref=12 / deblock=1:-3:-3 / analyse=0x3:0x113 / me=umh / subme=10 / psy=1 / psy_rd=1.10:0.00 / mixed_ref=1 / me_range=48 / chroma_me=1 / trellis=2 / 8x8dct=1 / cqm=0 / deadzone=21,11 / fast_pskip=0 / chroma_qp_offset=-2 / threads=6 / lookahead_threads=1 / sliced_threads=0 / nr=0 / decimate=0 / interlaced=0 / bluray_compat=0 / constrained_intra=0 / bframes=8 / b_pyramid=2 / b_adapt=2 / b_bias=0 / direct=3 / weightb=1 / open_gop=0 / weightp=2 / keyint=240 / keyint_min=24 / scenecut=40 / intra_refresh=0 / rc_lookahead=60 / rc=2pass / mbtree=1 / bitrate=6499 / ratetol=1.0 / qcomp=0.60 / qpmin=0 / qpmax=69 / qpstep=4 / cplxblur=20.0 / qblur=0.5 / vbv_maxrate=38000 / vbv_bufsize=30000 / nal_hrd=none / filler=0 / ip_ratio=1.40 / aq=1:0.80
  40. Default                                  : Yes
  41. Forced                                   : No
  42.  
  43. Audio
  44. ID                                       : 2
  45. Format                                   : AC-3
  46. Format/Info                              : Audio Coding 3
  47. Commercial name                          : Dolby Digital
  48. Codec ID                                 : A_AC3
  49. Duration                                 : 1 h 57 min
  50. Bit rate mode                            : Constant
  51. Bit rate                                 : 640 kb/s
  52. Channel(s)                               : 6 channels
  53. Channel layout                           : L R C LFE Ls Rs
  54. Sampling rate                            : 48.0 kHz
  55. Frame rate                               : 31.250 FPS (1536 SPF)
  56. Bit depth                                : 16 bits
  57. Compression mode                         : Lossy
  58. Stream size                              : 540 MiB (9%)
  59. Title                                    : 5.1 DD 640 Kbps
  60. Language                                 : Hindi
  61. Service kind                             : Complete Main
  62. Default                                  : Yes
  63. Forced                                   : No
  64.  
  65. Text
  66. ID                                       : 3
  67. Format                                   : UTF-8
  68. Codec ID                                 : S_TEXT/UTF8
  69. Codec ID/Info                            : UTF-8 Plain Text
  70. Duration                                 : 1 h 57 min
  71. Bit rate                                 : 52 b/s
  72. Count of elements                        : 1469
  73. Stream size                              : 45.4 KiB (0%)
  74. Language                                 : English
  75. Default                                  : No
  76. Forced                                   : No
  77.  
  78. Menu
  79. 00:00:00.000                             : en:01. Dev & Tutu
  80. 00:06:32.042                             : en:02. Kill Dil...
  81. 00:12:07.667                             : en:03. The Bhaiyaji
  82. 00:14:13.833                             : en:04. Enter - Disha
  83. 00:27:32.917                             : en:05. Sweeta...
  84. 00:29:57.792                             : en:06. The Coffee Zone
  85. 00:38:48.708                             : en:07. Happy Budday...
  86. 00:41:52.875                             : en:08. And Love Happens
  87. 00:52:15.083                             : en:09. Bol Beliya...
  88. 00:57:16.208                             : en:10. Hit & Miss
  89. 01:01:38.875                             : en:11. In The Line of Fire
  90. 01:10:10.458                             : en:12. A Fake Degree
  91. 01:13:31.333                             : en:13. Daiyya Maiyaa... (i)
  92. 01:15:56.792                             : en:14. Boyfriend Zone
  93. 01:19:43.833                             : en:15. Daiyya Maiyaa... (ii)
  94. 01:20:24.667                             : en:16. A Double Life
  95. 01:29:22.708                             : en:17. Lovebirds
  96. 01:32:41.250                             : en:18. Sajde...
  97. 01:36:18.250                             : en:19. Game On
  98. 01:46:19.458                             : en:20. Bawra...
  99. 01:51:54.958                             : en:21. The End
  100. 01:53:46.833                             : en:22. Nakhriley...
  101.  
  102.  
  103.