Posted : 4 Weeks ago

  1. Liberte.2019.720p.BluRay.x264.AAC-[YTS.MX].mp4
  2. General
  3. Complete name                            : F:\tempMovie2\Liberte.2019.720p.BluRay.x264.AAC-[YTS.MX].mp4
  4. Format                                   : MPEG-4
  5. Format profile                           : Base Media
  6. Codec ID                                 : isom (isom/iso2/avc1/mp41)
  7. File size                                : 1.23 GiB
  8. Duration                                 : 2 h 17 min
  9. Overall bit rate mode                    : Variable
  10. Overall bit rate                         : 1 284 kb/s
  11. Writing application                      : Lavf58.65.101
  12.  
  13. Video
  14. ID                                       : 1
  15. Format                                   : AVC
  16. Format/Info                              : Advanced Video Codec
  17. Format profile                           : [email protected]
  18. Format settings                          : CABAC / 4 Ref Frames
  19. Format settings, CABAC                   : Yes
  20. Format settings, Reference frames        : 4 frames
  21. Codec ID                                 : avc1
  22. Codec ID/Info                            : Advanced Video Coding
  23. Duration                                 : 2 h 17 min
  24. Bit rate                                 : 1 150 kb/s
  25. Maximum bit rate                         : 31.3 Mb/s
  26. Width                                    : 1 280 pixels
  27. Height                                   : 672 pixels
  28. Display aspect ratio                     : 1.905
  29. Frame rate mode                          : Constant
  30. Frame rate                               : 24.000 FPS
  31. Color space                              : YUV
  32. Chroma subsampling                       : 4:2:0
  33. Bit depth                                : 8 bits
  34. Scan type                                : Progressive
  35. Bits/(Pixel*Frame)                       : 0.056
  36. Stream size                              : 1.11 GiB (90%)
  37. Writing library                          : x264 core 161
  38. Encoding settings                        : cabac=1 / ref=4 / deblock=1:-1:-1 / analyse=0x3:0x133 / me=umh / subme=9 / psy=1 / psy_rd=1.00:0.15 / mixed_ref=1 / me_range=24 / chroma_me=1 / trellis=2 / 8x8dct=1 / cqm=0 / deadzone=21,11 / fast_pskip=0 / chroma_qp_offset=-3 / threads=21 / lookahead_threads=1 / sliced_threads=0 / nr=0 / decimate=1 / interlaced=0 / bluray_compat=0 / constrained_intra=0 / bframes=3 / b_pyramid=2 / b_adapt=2 / b_bias=0 / direct=3 / weightb=1 / open_gop=0 / weightp=2 / keyint=250 / keyint_min=23 / scenecut=40 / intra_refresh=0 / rc_lookahead=60 / rc=2pass / mbtree=1 / bitrate=1150 / ratetol=1.0 / qcomp=0.60 / qpmin=0 / qpmax=69 / qpstep=4 / cplxblur=20.0 / qblur=0.5 / vbv_maxrate=31250 / vbv_bufsize=31250 / nal_hrd=none / filler=0 / ip_ratio=1.40 / aq=1:1.00
  39. Color range                              : Limited
  40. Matrix coefficients                      : BT.709
  41. Codec configuration box                  : avcC
  42.  
  43. Audio
  44. ID                                       : 2
  45. Format                                   : AAC LC
  46. Format/Info                              : Advanced Audio Codec Low Complexity
  47. Codec ID                                 : mp4a-40-2
  48. Duration                                 : 2 h 17 min
  49. Source duration                          : 2 h 17 min
  50. Bit rate mode                            : Variable
  51. Bit rate                                 : 128 kb/s / 128 kb/s
  52. Channel(s)                               : 2 channels
  53. Channel layout                           : L R
  54. Sampling rate                            : 48.0 kHz
  55. Frame rate                               : 46.875 FPS (1024 SPF)
  56. Compression mode                         : Lossy
  57. Stream size                              : 125 MiB (10%)
  58. Source stream size                       : 125 MiB (10%)
  59. Default                                  : Yes
  60. Alternate group                          : 1
  61. mdhd_Duration                            : 8256298
  62.  
  63.  
  64.