Posted : 1 Week ago

  1. Ring.Mamma.2019.SWEDISH.1080p.BluRay.x264.DTS-Legacy.mkv
  2. General
  3. Unique ID                                : 254399948471679722239827568725037926246 (0xBF63A5DA3B96B594C095FF65EFB7C766)
  4. Complete name                            : D:\Ring.Mamma.2019.SWEDISH.1080p.BluRay.x264.DTS-Legacy.mkv
  5. Format                                   : Matroska
  6. Format version                           : Version 4
  7. File size                                : 11.2 GiB
  8. Duration                                 : 1 h 41 min
  9. Overall bit rate                         : 15.8 Mb/s
  10. Movie name                               : Ring.Mamma.2019.1080p.BluRay.DDP.5.1.x264-Legacy
  11. Encoded date                             : UTC 2020-10-17 19:40:54
  12. Writing application                      : mkvmerge v49.0.0 ('Sick Of Losing Soulmates') 64-bit
  13. Writing library                          : libebml v1.4.0 + libmatroska v1.6.1
  14. Cover                                    : Yes
  15. Attachments                              : small_cover_land.jpg / cover.jpg / cover_land.jpg / small_cover.jpg
  16.  
  17. Video
  18. ID                                       : 1
  19. Format                                   : AVC
  20. Format/Info                              : Advanced Video Codec
  21. Format profile                           : [email protected]
  22. Format settings                          : CABAC / 5 Ref Frames
  23. Format settings, CABAC                   : Yes
  24. Format settings, Reference frames        : 5 frames
  25. Codec ID                                 : V_MPEG4/ISO/AVC
  26. Duration                                 : 1 h 41 min
  27. Bit rate                                 : 14.3 Mb/s
  28. Width                                    : 1 920 pixels
  29. Height                                   : 804 pixels
  30. Display aspect ratio                     : 2.40:1
  31. Frame rate mode                          : Constant
  32. Frame rate                               : 24.000 FPS
  33. Color space                              : YUV
  34. Chroma subsampling                       : 4:2:0
  35. Bit depth                                : 8 bits
  36. Scan type                                : Progressive
  37. Bits/(Pixel*Frame)                       : 0.386
  38. Stream size                              : 10.1 GiB (90%)
  39. Title                                    : Legacy pwns u!
  40. Writing library                          : x264 core 161 r3018+53 18a1d6c t_mod_New [(8 & 10)[email protected] X86_64]
  41. Encoding settings                        : cabac=1 / ref=5 / deblock=1:-3:-3 / analyse=0x3:0x133 / me=umh / subme=11 / psy=1 / fade_compensate=0.00 / psy_rd=1.05:0.00 / mixed_ref=1 / me_range=32 / chroma_me=1 / trellis=2 / 8x8dct=1 / cqm=0 / deadzone=21,11 / fast_pskip=0 / chroma_qp_offset=-2 / threads=25 / lookahead_threads=6 / sliced_threads=0 / nr=0 / decimate=0 / interlaced=0 / bluray_compat=0 / constrained_intra=0 / fgo=0 / bframes=12 / b_pyramid=2 / b_adapt=2 / b_bias=0 / direct=3 / weightb=1 / open_gop=0 / weightp=2 / keyint=240 / keyint_min=24 / scenecut=40 / intra_refresh=0 / rc_lookahead=80 / rc=2pass / mbtree=0 / bitrate=14300 / ratetol=3.0 / qcomp=0.61 / qpmin=0:0:0 / qpmax=69:69:69 / qpstep=4 / cplxblur=20.0 / qblur=0.5 / vbv_maxrate=62500 / vbv_bufsize=78125 / nal_hrd=none / filler=0 / ip_ratio=1.30 / pb_ratio=1.17 / aq=3:0.77 / aq-sensitivity=10.00 / aq-factor=1.00:1.00:1.00 / aq2=0 / aq3=0
  42. Language                                 : Swedish
  43. Default                                  : Yes
  44. Forced                                   : No
  45. Color range                              : Limited
  46. Color primaries                          : BT.709
  47. Transfer characteristics                 : BT.709
  48. Matrix coefficients                      : BT.709
  49.  
  50. Audio
  51. ID                                       : 2
  52. Format                                   : DTS
  53. Format/Info                              : Digital Theater Systems
  54. Codec ID                                 : A_DTS
  55. Duration                                 : 1 h 41 min
  56. Bit rate mode                            : Constant
  57. Bit rate                                 : 1 509 kb/s
  58. Channel(s)                               : 6 channels
  59. Channel layout                           : C L R Ls Rs LFE
  60. Sampling rate                            : 48.0 kHz
  61. Frame rate                               : 93.750 FPS (512 SPF)
  62. Bit depth                                : 24 bits
  63. Compression mode                         : Lossy
  64. Stream size                              : 1.07 GiB (10%)
  65. Language                                 : Swedish
  66. Default                                  : Yes
  67. Forced                                   : No
  68.  
  69. Text #1
  70. ID                                       : 3
  71. Format                                   : UTF-8
  72. Codec ID                                 : S_TEXT/UTF8
  73. Codec ID/Info                            : UTF-8 Plain Text
  74. Duration                                 : 1 h 36 min
  75. Bit rate                                 : 37 b/s
  76. Count of elements                        : 958
  77. Stream size                              : 26.4 KiB (0%)
  78. Title                                    : English
  79. Language                                 : English
  80. Default                                  : Yes
  81. Forced                                   : No
  82.  
  83. Text #2
  84. ID                                       : 4
  85. Format                                   : UTF-8
  86. Codec ID                                 : S_TEXT/UTF8
  87. Codec ID/Info                            : UTF-8 Plain Text
  88. Duration                                 : 1 h 38 min
  89. Bit rate                                 : 40 b/s
  90. Count of elements                        : 908
  91. Stream size                              : 29.4 KiB (0%)
  92. Title                                    : Swedish
  93. Language                                 : Swedish
  94. Default                                  : No
  95. Forced                                   : No
  96.  
  97. Text #3
  98. ID                                       : 5
  99. Format                                   : UTF-8
  100. Codec ID                                 : S_TEXT/UTF8
  101. Codec ID/Info                            : UTF-8 Plain Text
  102. Duration                                 : 1 h 38 min
  103. Bit rate                                 : 37 b/s
  104. Count of elements                        : 960
  105. Stream size                              : 26.8 KiB (0%)
  106. Title                                    : Hungarian
  107. Language                                 : Hungarian
  108. Default                                  : No
  109. Forced                                   : No
  110.  
  111. Menu
  112. 00:00:00.000                             : en:Chapter 01
  113. 00:12:27.542                             : en:Chapter 02
  114. 00:25:32.917                             : en:Chapter 03
  115. 00:37:15.458                             : en:Chapter 04
  116. 00:50:10.000                             : en:Chapter 05
  117. 01:03:16.083                             : en:Chapter 06
  118. 01:14:56.083                             : en:Chapter 07
  119. 01:28:08.542                             : en:Chapter 08
  120.  
  121.  
  122.