Posted : 1 Week ago

  1. Come.September.1961.1080p.WEB-DL.DDP2.0.H.264-SbR.mkv
  2. General
  3. Unique ID                                : 182064113927404804247672105102898173115 (0x88F845DB895AEC53B29C74A1D1F514BB)
  4. Complete name                            : D:\Come.September.1961.1080p.WEB-DL.DDP2.0.H.264-SbR.mkv
  5. Format                                   : Matroska
  6. Format version                           : Version 2
  7. File size                                : 11.9 GiB
  8. Duration                                 : 1 h 53 min
  9. Overall bit rate mode                    : Variable
  10. Overall bit rate                         : 15.0 Mb/s
  11. Encoded date                             : UTC 2017-08-31 19:11:42
  12. Writing application                      : mkvmerge v15.0.0 ('Duel with the Devil') 64-bit
  13. Writing library                          : libebml v1.3.5 + libmatroska v1.4.5
  14. Cover                                    : Yes
  15. Attachments                              : cover.jpg
  16.  
  17. Video
  18. ID                                       : 1
  19. Format                                   : AVC
  20. Format/Info                              : Advanced Video Codec
  21. Format profile                           : [email protected]
  22. Format settings                          : CABAC / 4 Ref Frames
  23. Format settings, CABAC                   : Yes
  24. Format settings, Reference frames        : 4 frames
  25. Codec ID                                 : V_MPEG4/ISO/AVC
  26. Duration                                 : 1 h 53 min
  27. Bit rate mode                            : Variable
  28. Bit rate                                 : 14.8 Mb/s
  29. Maximum bit rate                         : 15.0 Mb/s
  30. Width                                    : 1 920 pixels
  31. Height                                   : 816 pixels
  32. Display aspect ratio                     : 2.35:1
  33. Frame rate mode                          : Constant
  34. Frame rate                               : 23.976 (24000/1001) FPS
  35. Color space                              : YUV
  36. Chroma subsampling                       : 4:2:0
  37. Bit depth                                : 8 bits
  38. Scan type                                : Progressive
  39. Bits/(Pixel*Frame)                       : 0.394
  40. Stream size                              : 11.7 GiB (98%)
  41. Language                                 : English
  42. Default                                  : Yes
  43. Forced                                   : No
  44. Color range                              : Limited
  45. Color primaries                          : BT.709
  46. Transfer characteristics                 : BT.709
  47. Matrix coefficients                      : BT.709
  48.  
  49. Audio
  50. ID                                       : 2
  51. Format                                   : E-AC-3
  52. Format/Info                              : Enhanced AC-3
  53. Commercial name                          : Dolby Digital Plus
  54. Codec ID                                 : A_EAC3
  55. Duration                                 : 1 h 53 min
  56. Bit rate mode                            : Constant
  57. Bit rate                                 : 224 kb/s
  58. Channel(s)                               : 2 channels
  59. Channel layout                           : L R
  60. Sampling rate                            : 48.0 kHz
  61. Frame rate                               : 31.250 FPS (1536 SPF)
  62. Compression mode                         : Lossy
  63. Stream size                              : 182 MiB (1%)
  64. Language                                 : English
  65. Service kind                             : Complete Main
  66. Default                                  : Yes
  67. Forced                                   : No
  68.  
  69. Text #1
  70. ID                                       : 3
  71. Format                                   : UTF-8
  72. Codec ID                                 : S_TEXT/UTF8
  73. Codec ID/Info                            : UTF-8 Plain Text
  74. Duration                                 : 1 h 49 min
  75. Bit rate                                 : 60 b/s
  76. Count of elements                        : 1271
  77. Stream size                              : 48.8 KiB (0%)
  78. Language                                 : English
  79. Default                                  : No
  80. Forced                                   : No
  81.  
  82. Text #2
  83. ID                                       : 4
  84. Format                                   : UTF-8
  85. Codec ID                                 : S_TEXT/UTF8
  86. Codec ID/Info                            : UTF-8 Plain Text
  87. Duration                                 : 1 h 52 min
  88. Bit rate                                 : 62 b/s
  89. Count of elements                        : 1677
  90. Stream size                              : 51.4 KiB (0%)
  91. Title                                    : SDH
  92. Language                                 : English
  93. Default                                  : No
  94. Forced                                   : No
  95.  
  96. Menu
  97. 00:00:00.000                             : en:01. Main Titles
  98. 00:02:57.365                             : en:02. Her Annual Lover
  99. 00:09:36.097                             : en:03. College Boys
  100. 00:13:08.184                             : en:04. More Than A Villa
  101. 00:23:02.152                             : en:05. Help From Sandy
  102. 00:27:30.587                             : en:06. Dumping the Major Domo
  103. 00:31:07.345                             : en:07. Lisa's Arrival
  104. 00:41:01.939                             : en:08. Talbot Pops His Cork
  105. 00:45:22.491                             : en:09. Canceled Reservations
  106. 00:53:20.760                             : en:10. A Ride in the Country
  107. 01:02:50.955                             : en:11. Multiplication
  108. 01:07:28.607                             : en:12. Just a Few Drinks
  109. 01:17:27.080                             : en:13. High Standards
  110. 01:22:51.446                             : en:14. The Morning After
  111. 01:28:14.811                             : en:15. Lemmings
  112. 01:30:51.717                             : en:16. Going After Lisa
  113. 01:35:25.449                             : en:17. The Car Thief
  114. 01:38:37.516                             : en:18. The Thief's Accomplice
  115. 01:47:06.775                             : en:19. Talbot's Bride
  116. 01:51:27.869                             : en:20. The New Guests
  117.  
  118.  
  119.