Posted : 1 Week ago

  1. Juleblod.2017.1080p.BluRay.DD5.1.x264-EDPH.mkv
  2. General
  3. Unique ID                                : 322725227933051714509336506710585792516 (0xF2CA9E371E6931D5586F7D9E1C145804)
  4. Complete name                            : E:\Juleblod.2017.NORWEGIAN.1080p.BluRay.x264.DD5.1-EDPH\Juleblod.2017.1080p.BluRay.DD5.1.x264-EDPH.mkv
  5. Format                                   : Matroska
  6. Format version                           : Version 4
  7. File size                                : 10.8 GiB
  8. Duration                                 : 1 h 44 min
  9. Overall bit rate                         : 14.8 Mb/s
  10. Encoded date                             : UTC 2020-11-20 15:30:48
  11. Writing application                      : mkvmerge v33.0.0 ('A Little Bit of Madness') 64-bit
  12. Writing library                          : libebml v1.3.7 + libmatroska v1.5.0
  13.  
  14. Video
  15. ID                                       : 1
  16. Format                                   : AVC
  17. Format/Info                              : Advanced Video Codec
  18. Format profile                           : [email protected]
  19. Format settings                          : CABAC / 5 Ref Frames
  20. Format settings, CABAC                   : Yes
  21. Format settings, Reference frames        : 5 frames
  22. Codec ID                                 : V_MPEG4/ISO/AVC
  23. Duration                                 : 1 h 44 min
  24. Bit rate                                 : 14.1 Mb/s
  25. Width                                    : 1 920 pixels
  26. Height                                   : 804 pixels
  27. Display aspect ratio                     : 2.40:1
  28. Frame rate mode                          : Constant
  29. Frame rate                               : 24.000 FPS
  30. Color space                              : YUV
  31. Chroma subsampling                       : 4:2:0
  32. Bit depth                                : 8 bits
  33. Scan type                                : Progressive
  34. Bits/(Pixel*Frame)                       : 0.380
  35. Stream size                              : 10.3 GiB (95%)
  36. Writing library                          : x264 core 160 r3009 4c9b076
  37. Encoding settings                        : cabac=1 / ref=5 / deblock=1:-3:-3 / analyse=0x3:0x133 / me=umh / subme=11 / psy=1 / psy_rd=1.02:0.00 / mixed_ref=1 / me_range=32 / chroma_me=1 / trellis=2 / 8x8dct=1 / cqm=0 / deadzone=21,11 / fast_pskip=0 / chroma_qp_offset=-2 / threads=12 / lookahead_threads=3 / sliced_threads=0 / nr=0 / decimate=0 / interlaced=0 / bluray_compat=0 / constrained_intra=0 / bframes=16 / b_pyramid=2 / b_adapt=2 / b_bias=0 / direct=3 / weightb=1 / open_gop=0 / weightp=2 / keyint=250 / keyint_min=24 / scenecut=40 / intra_refresh=0 / rc_lookahead=250 / rc=crf / mbtree=0 / crf=17.2 / qcomp=0.60 / qpmin=0 / qpmax=69 / qpstep=4 / vbv_maxrate=62500 / vbv_bufsize=78125 / crf_max=0.0 / nal_hrd=none / filler=0 / ip_ratio=1.30 / pb_ratio=1.20 / aq=3:0.80
  38. Language                                 : English
  39. Default                                  : Yes
  40. Forced                                   : No
  41. Color range                              : Limited
  42. Color primaries                          : BT.709
  43. Matrix coefficients                      : BT.709
  44.  
  45. Audio
  46. ID                                       : 2
  47. Format                                   : AC-3
  48. Format/Info                              : Audio Coding 3
  49. Commercial name                          : Dolby Digital
  50. Codec ID                                 : A_AC3
  51. Duration                                 : 1 h 44 min
  52. Bit rate mode                            : Constant
  53. Bit rate                                 : 640 kb/s
  54. Channel(s)                               : 6 channels
  55. Channel layout                           : L R C LFE Ls Rs
  56. Sampling rate                            : 48.0 kHz
  57. Frame rate                               : 31.250 FPS (1536 SPF)
  58. Bit depth                                : 16 bits
  59. Compression mode                         : Lossy
  60. Stream size                              : 480 MiB (4%)
  61. Language                                 : Norwegian
  62. Service kind                             : Complete Main
  63. Default                                  : Yes
  64. Forced                                   : No
  65.  
  66. Text #1
  67. ID                                       : 3
  68. Format                                   : UTF-8
  69. Codec ID                                 : S_TEXT/UTF8
  70. Codec ID/Info                            : UTF-8 Plain Text
  71. Duration                                 : 1 h 39 min
  72. Bit rate                                 : 24 b/s
  73. Count of elements                        : 531
  74. Stream size                              : 17.5 KiB (0%)
  75. Language                                 : English
  76. Default                                  : Yes
  77. Forced                                   : No
  78.  
  79. Text #2
  80. ID                                       : 4
  81. Format                                   : PGS
  82. Muxing mode                              : zlib
  83. Codec ID                                 : S_HDMV/PGS
  84. Codec ID/Info                            : Picture based subtitle format used on BDs/HD-DVDs
  85. Duration                                 : 1 h 38 min
  86. Bit rate                                 : 11.8 kb/s
  87. Count of elements                        : 952
  88. Stream size                              : 8.31 MiB (0%)
  89. Language                                 : Norwegian
  90. Default                                  : No
  91. Forced                                   : No
  92.  
  93. Text #3
  94. ID                                       : 5
  95. Format                                   : PGS
  96. Muxing mode                              : zlib
  97. Codec ID                                 : S_HDMV/PGS
  98. Codec ID/Info                            : Picture based subtitle format used on BDs/HD-DVDs
  99. Duration                                 : 1 h 44 min
  100. Bit rate                                 : 12.6 kb/s
  101. Count of elements                        : 851
  102. Stream size                              : 9.39 MiB (0%)
  103. Language                                 : Danish
  104. Default                                  : No
  105. Forced                                   : No
  106.  
  107. Text #4
  108. ID                                       : 6
  109. Format                                   : PGS
  110. Muxing mode                              : zlib
  111. Codec ID                                 : S_HDMV/PGS
  112. Codec ID/Info                            : Picture based subtitle format used on BDs/HD-DVDs
  113. Duration                                 : 1 h 44 min
  114. Bit rate                                 : 13.2 kb/s
  115. Count of elements                        : 853
  116. Stream size                              : 9.87 MiB (0%)
  117. Language                                 : Finnish
  118. Default                                  : No
  119. Forced                                   : No
  120.  
  121. Text #5
  122. ID                                       : 7
  123. Format                                   : PGS
  124. Muxing mode                              : zlib
  125. Codec ID                                 : S_HDMV/PGS
  126. Codec ID/Info                            : Picture based subtitle format used on BDs/HD-DVDs
  127. Duration                                 : 1 h 44 min
  128. Bit rate                                 : 12.5 kb/s
  129. Count of elements                        : 851
  130. Stream size                              : 9.30 MiB (0%)
  131. Language                                 : Swedish
  132. Default                                  : No
  133. Forced                                   : No
  134.  
  135. Menu
  136. 00:00:00.000                             : en:Chapter 01
  137. 00:09:17.875                             : en:Chapter 02
  138. 00:27:45.041                             : en:Chapter 03
  139. 00:35:10.708                             : en:Chapter 04
  140. 00:44:12.666                             : en:Chapter 05
  141. 00:55:35.125                             : en:Chapter 06
  142. 01:07:41.291                             : en:Chapter 07
  143. 01:19:36.666                             : en:Chapter 08
  144. 01:32:01.458                             : en:Chapter 09
  145. 01:42:19.333                             : en:Chapter 10
  146.  
  147.  
  148.