Posted : 1 Month ago

  1. Kalashnikov.2020.RUSSIAN.1080p.BluRay.x264-SPHD.mkv
  2. General
  3. Unique ID                                : 292498237630511857813252264595350618085 (0xDC0D1C88343FD94317D69B09887BFFE5)
  4. Complete name                            : D:\Kalashnikov.2020.RUSSIAN.1080p.BluRay.x264-SPHD.mkv
  5. Format                                   : Matroska
  6. Format version                           : Version 4
  7. File size                                : 15.1 GiB
  8. Duration                                 : 1 h 44 min
  9. Overall bit rate                         : 20.7 Mb/s
  10. Movie name                               : Kalashnikov (2020)
  11. Encoded date                             : UTC 2020-10-20 06:36:58
  12. Writing application                      : mkvmerge v49.0.0 ('Sick Of Losing Soulmates') 64-bit
  13. Writing library                          : libebml v1.4.0 + libmatroska v1.6.1
  14. Cover                                    : Yes
  15. Attachments                              : small_cover_land.jpg / cover.jpg / cover_land.jpg / small_cover.jpg
  16.  
  17. Video
  18. ID                                       : 1
  19. Format                                   : AVC
  20. Format/Info                              : Advanced Video Codec
  21. Format profile                           : [email protected]
  22. Format settings                          : CABAC / 5 Ref Frames
  23. Format settings, CABAC                   : Yes
  24. Format settings, Reference frames        : 5 frames
  25. Codec ID                                 : V_MPEG4/ISO/AVC
  26. Duration                                 : 1 h 44 min
  27. Bit rate                                 : 19.6 Mb/s
  28. Width                                    : 1 920 pixels
  29. Height                                   : 856 pixels
  30. Display aspect ratio                     : 2.25:1
  31. Frame rate mode                          : Constant
  32. Frame rate                               : 24.000 FPS
  33. Color space                              : YUV
  34. Chroma subsampling                       : 4:2:0
  35. Bit depth                                : 8 bits
  36. Scan type                                : Progressive
  37. Bits/(Pixel*Frame)                       : 0.498
  38. Stream size                              : 14.3 GiB (95%)
  39. Writing library                          : x264 core 160 r3009 4c9b076
  40. Encoding settings                        : cabac=1 / ref=5 / deblock=1:-3:-3 / analyse=0x3:0x133 / me=umh / subme=10 / psy=1 / psy_rd=1.00:0.00 / mixed_ref=1 / me_range=32 / chroma_me=1 / trellis=2 / 8x8dct=1 / cqm=0 / deadzone=21,11 / fast_pskip=0 / chroma_qp_offset=-2 / threads=18 / lookahead_threads=4 / sliced_threads=0 / nr=0 / decimate=0 / interlaced=0 / bluray_compat=0 / constrained_intra=0 / bframes=11 / b_pyramid=2 / b_adapt=2 / b_bias=0 / direct=3 / weightb=1 / open_gop=0 / weightp=2 / keyint=250 / keyint_min=24 / scenecut=40 / intra_refresh=0 / rc=crf / mbtree=0 / crf=18.4 / qcomp=0.60 / qpmin=0 / qpmax=69 / qpstep=4 / ip_ratio=1.30 / pb_ratio=1.20 / aq=3:0.85
  41. Default                                  : Yes
  42. Forced                                   : No
  43.  
  44. Audio
  45. ID                                       : 2
  46. Format                                   : E-AC-3
  47. Format/Info                              : Enhanced AC-3
  48. Commercial name                          : Dolby Digital Plus
  49. Codec ID                                 : A_EAC3
  50. Duration                                 : 1 h 44 min
  51. Bit rate mode                            : Constant
  52. Bit rate                                 : 1 023 kb/s
  53. Channel(s)                               : 6 channels
  54. Channel layout                           : L R C LFE Ls Rs
  55. Sampling rate                            : 48.0 kHz
  56. Frame rate                               : 93.750 FPS (512 SPF)
  57. Compression mode                         : Lossy
  58. Stream size                              : 765 MiB (5%)
  59. Language                                 : Russian
  60. Service kind                             : Complete Main
  61. Default                                  : Yes
  62. Forced                                   : No
  63.  
  64. Text #1
  65. ID                                       : 3
  66. Format                                   : UTF-8
  67. Codec ID                                 : S_TEXT/UTF8
  68. Codec ID/Info                            : UTF-8 Plain Text
  69. Duration                                 : 1 h 40 min
  70. Bit rate                                 : 41 b/s
  71. Count of elements                        : 857
  72. Stream size                              : 30.4 KiB (0%)
  73. Language                                 : English
  74. Default                                  : Yes
  75. Forced                                   : No
  76.  
  77. Text #2
  78. ID                                       : 4
  79. Format                                   : PGS
  80. Muxing mode                              : zlib
  81. Codec ID                                 : S_HDMV/PGS
  82. Codec ID/Info                            : Picture based subtitle format used on BDs/HD-DVDs
  83. Duration                                 : 1 h 39 min
  84. Bit rate                                 : 30.2 kb/s
  85. Count of elements                        : 1792
  86. Stream size                              : 21.6 MiB (0%)
  87. Language                                 : German
  88. Default                                  : No
  89. Forced                                   : No
  90.  
  91. Menu
  92. 00:00:00.000                             : en:Chapter 01
  93. 00:04:09.458                             : en:Chapter 02
  94. 00:11:51.000                             : en:Chapter 03
  95. 00:19:54.083                             : en:Chapter 04
  96. 00:27:33.000                             : en:Chapter 05
  97. 00:33:59.792                             : en:Chapter 06
  98. 00:38:04.917                             : en:Chapter 07
  99. 00:45:04.625                             : en:Chapter 08
  100. 00:55:43.125                             : en:Chapter 09
  101. 01:05:46.542                             : en:Chapter 10
  102. 01:14:01.792                             : en:Chapter 11
  103. 01:16:34.917                             : en:Chapter 12
  104. 01:22:24.250                             : en:Chapter 13
  105. 01:28:49.042                             : en:Chapter 14
  106. 01:36:09.333                             : en:Chapter 15
  107. 01:41:21.917                             : en:Chapter 16
  108.  
  109.  
  110.