Posted : 1 Month ago

  1. Sealed.Lips.2018.GERMAN.1080p.BluRay.x264-HANDJOB.mkv
  2. General
  3. Unique ID                                : 58787276882440583126118497606623638504 (0x2C3A04874FB5A507CBF11B2B6F2133E8)
  4. Complete name                            : D:\Sealed.Lips.2018.GERMAN.1080p.BluRay.x264-HANDJOB.mkv
  5. Format                                   : Matroska
  6. Format version                           : Version 4
  7. File size                                : 8.72 GiB
  8. Duration                                 : 1 h 48 min
  9. Overall bit rate                         : 11.5 Mb/s
  10. Movie name                               : Und der Zukunft zugewandt AKA Sealed Lips [2018] 1080p BluRay - HJ
  11. Encoded date                             : UTC 2020-10-18 14:54:06
  12. Writing application                      : mkvmerge v49.0.0 ('Sick Of Losing Soulmates') 64-bit
  13. Writing library                          : libebml v1.4.0 + libmatroska v1.6.1
  14. Cover                                    : Yes
  15. Attachments                              : small_cover_land.jpg / cover.jpg / cover_land.jpg / small_cover.jpg
  16.  
  17. Video
  18. ID                                       : 1
  19. Format                                   : AVC
  20. Format/Info                              : Advanced Video Codec
  21. Format profile                           : [email protected]
  22. Format settings                          : CABAC / 4 Ref Frames
  23. Format settings, CABAC                   : Yes
  24. Format settings, Reference frames        : 4 frames
  25. Codec ID                                 : V_MPEG4/ISO/AVC
  26. Duration                                 : 1 h 48 min
  27. Bit rate                                 : 10.9 Mb/s
  28. Width                                    : 1 920 pixels
  29. Height                                   : 1 036 pixels
  30. Display aspect ratio                     : 1.85:1
  31. Frame rate mode                          : Constant
  32. Frame rate                               : 24.000 FPS
  33. Color space                              : YUV
  34. Chroma subsampling                       : 4:2:0
  35. Bit depth                                : 8 bits
  36. Scan type                                : Progressive
  37. Bits/(Pixel*Frame)                       : 0.228
  38. Stream size                              : 8.24 GiB (94%)
  39. Writing library                          : x264 core 157 r2935 545de2f
  40. Encoding settings                        : cabac=1 / ref=4 / deblock=1:-3:-3 / analyse=0x3:0x133 / me=umh / subme=10 / psy=1 / psy_rd=1.00:0.00 / mixed_ref=1 / me_range=32 / chroma_me=1 / trellis=2 / 8x8dct=1 / cqm=0 / deadzone=21,11 / fast_pskip=0 / chroma_qp_offset=-2 / threads=18 / lookahead_threads=4 / sliced_threads=0 / nr=0 / decimate=0 / interlaced=0 / bluray_compat=0 / constrained_intra=0 / bframes=16 / b_pyramid=2 / b_adapt=2 / b_bias=0 / direct=3 / weightb=1 / open_gop=0 / weightp=2 / keyint=240 / keyint_min=24 / scenecut=40 / intra_refresh=0 / rc_lookahead=60 / rc=crf / mbtree=0 / crf=19.0 / qcomp=0.60 / qpmin=0 / qpmax=69 / qpstep=4 / vbv_maxrate=62500 / vbv_bufsize=78125 / crf_max=0.0 / nal_hrd=none / filler=0 / ip_ratio=1.40 / pb_ratio=1.30 / aq=2:1.00
  41. Default                                  : Yes
  42. Forced                                   : No
  43. Color range                              : Limited
  44. Color primaries                          : BT.709
  45. Transfer characteristics                 : BT.709
  46. Matrix coefficients                      : BT.709
  47.  
  48. Audio
  49. ID                                       : 2
  50. Format                                   : AC-3
  51. Format/Info                              : Audio Coding 3
  52. Commercial name                          : Dolby Digital
  53. Codec ID                                 : A_AC3
  54. Duration                                 : 1 h 48 min
  55. Bit rate mode                            : Constant
  56. Bit rate                                 : 640 kb/s
  57. Channel(s)                               : 6 channels
  58. Channel layout                           : L R C LFE Ls Rs
  59. Sampling rate                            : 48.0 kHz
  60. Frame rate                               : 31.250 FPS (1536 SPF)
  61. Bit depth                                : 16 bits
  62. Compression mode                         : Lossy
  63. Stream size                              : 496 MiB (6%)
  64. Language                                 : German
  65. Service kind                             : Complete Main
  66. Default                                  : Yes
  67. Forced                                   : No
  68.  
  69. Text
  70. ID                                       : 3
  71. Format                                   : UTF-8
  72. Codec ID                                 : S_TEXT/UTF8
  73. Codec ID/Info                            : UTF-8 Plain Text
  74. Duration                                 : 1 h 46 min
  75. Bit rate                                 : 33 b/s
  76. Count of elements                        : 920
  77. Stream size                              : 26.0 KiB (0%)
  78. Language                                 : English
  79. Default                                  : Yes
  80. Forced                                   : No
  81.  
  82. Menu
  83. 00:00:00.000                             : :Chapter 1
  84. 00:09:34.750                             : :Chapter 2
  85. 00:19:33.125                             : :Chapter 3
  86. 00:27:23.500                             : :Chapter 4
  87. 00:37:01.792                             : :Chapter 5
  88. 00:40:49.458                             : :Chapter 6
  89. 00:46:51.917                             : :Chapter 7
  90. 00:55:51.375                             : :Chapter 8
  91. 01:04:59.667                             : :Chapter 9
  92. 01:17:10.667                             : :Chapter 10
  93. 01:26:54.292                             : :Chapter 11
  94. 01:43:30.792                             : :Chapter 12
  95.  
  96.  
  97.