Posted : 1 Month ago

  1. The.Fallen.2019.CHINESE.1080p.BluRay.x264.DTS-PTH.mkv
  2. General
  3. Unique ID                                : 305639792074458700215711606532772505047 (0xE5F01530C23AC2C1F8CB3BC67A3CA5D7)
  4. Complete name                            : D:\The.Fallen.2019.CHINESE.1080p.BluRay.x264.DTS-PTH.mkv
  5. Format                                   : Matroska
  6. Format version                           : Version 4
  7. File size                                : 7.11 GiB
  8. Duration                                 : 1 h 36 min
  9. Overall bit rate                         : 10.5 Mb/s
  10. Movie name                               : The Fallen - Blu-rayâ„¢
  11. Encoded date                             : UTC 2020-10-21 10:58:29
  12. Writing application                      : mkvmerge v49.0.0 ('Sick Of Losing Soulmates') 64-bit
  13. Writing library                          : libebml v1.4.0 + libmatroska v1.6.1
  14. Cover                                    : Yes
  15. Attachments                              : small_cover_land.jpg / cover.jpg / cover_land.jpg / small_cover.jpg / cover.jpg
  16.  
  17. Video
  18. ID                                       : 1
  19. Format                                   : AVC
  20. Format/Info                              : Advanced Video Codec
  21. Format profile                           : [email protected]
  22. Format settings                          : CABAC / 4 Ref Frames
  23. Format settings, CABAC                   : Yes
  24. Format settings, Reference frames        : 4 frames
  25. Codec ID                                 : V_MPEG4/ISO/AVC
  26. Duration                                 : 1 h 36 min
  27. Bit rate                                 : 9 003 kb/s
  28. Width                                    : 1 920 pixels
  29. Height                                   : 816 pixels
  30. Display aspect ratio                     : 2.35:1
  31. Frame rate mode                          : Constant
  32. Frame rate                               : 24.000 FPS
  33. Color space                              : YUV
  34. Chroma subsampling                       : 4:2:0
  35. Bit depth                                : 8 bits
  36. Scan type                                : Progressive
  37. Bits/(Pixel*Frame)                       : 0.239
  38. Stream size                              : 6.07 GiB (85%)
  39. Writing library                          : x264 core 161 r3018+53 18a1d6c t_mod_New [(8 & 10)[email protected] X86_64]
  40. Encoding settings                        : cabac=1 / ref=4 / deblock=1:-3:-3 / analyse=0x3:0x133 / me=umh / subme=11 / psy=1 / fade_compensate=0.00 / psy_rd=1.00:0.00 / mixed_ref=1 / me_range=48 / chroma_me=1 / trellis=2 / 8x8dct=1 / cqm=0 / deadzone=21,11 / fast_pskip=0 / chroma_qp_offset=-3 / threads=24 / lookahead_threads=6 / sliced_threads=0 / nr=0 / decimate=0 / interlaced=0 / bluray_compat=0 / constrained_intra=0 / fgo=0 / bframes=11 / b_pyramid=2 / b_adapt=2 / b_bias=0 / direct=3 / weightb=1 / open_gop=0 / weightp=2 / keyint=240 / keyint_min=1 / scenecut=40 / intra_refresh=0 / rc_lookahead=72 / rc=crf / mbtree=0 / crf=17.0000 / qcomp=0.70 / qpmin=0:0:0 / qpmax=69:69:69 / qpstep=4 / vbv_maxrate=62500 / vbv_bufsize=78125 / crf_max=0.0 / nal_hrd=none / filler=0 / ip_ratio=1.40 / pb_ratio=1.30 / aq=3:0.90 / aq-sensitivity=10.00 / aq-factor=1.00:1.00:1.00 / aq2=0 / aq3=0
  41. Default                                  : Yes
  42. Forced                                   : No
  43.  
  44. Audio
  45. ID                                       : 2
  46. Format                                   : DTS
  47. Format/Info                              : Digital Theater Systems
  48. Codec ID                                 : A_DTS
  49. Duration                                 : 1 h 36 min
  50. Bit rate mode                            : Constant
  51. Bit rate                                 : 1 510 kb/s
  52. Channel(s)                               : 6 channels
  53. Channel layout                           : C L R Ls Rs LFE
  54. Sampling rate                            : 48.0 kHz
  55. Frame rate                               : 93.750 FPS (512 SPF)
  56. Bit depth                                : 24 bits
  57. Compression mode                         : Lossy
  58. Stream size                              : 1.02 GiB (14%)
  59. Language                                 : Chinese
  60. Default                                  : Yes
  61. Forced                                   : No
  62.  
  63. Text #1
  64. ID                                       : 3
  65. Format                                   : UTF-8
  66. Codec ID                                 : S_TEXT/UTF8
  67. Codec ID/Info                            : UTF-8 Plain Text
  68. Duration                                 : 1 h 32 min
  69. Bit rate                                 : 32 b/s
  70. Count of elements                        : 706
  71. Stream size                              : 22.0 KiB (0%)
  72. Title                                    : SRT
  73. Language                                 : English
  74. Default                                  : No
  75. Forced                                   : No
  76.  
  77. Text #2
  78. ID                                       : 4
  79. ID in the original source medium         : 4609 (0x1201)
  80. Format                                   : PGS
  81. Muxing mode                              : zlib
  82. Codec ID                                 : S_HDMV/PGS
  83. Codec ID/Info                            : Picture based subtitle format used on BDs/HD-DVDs
  84. Duration                                 : 1 h 32 min
  85. Bit rate                                 : 19.4 kb/s
  86. Count of elements                        : 1271
  87. Stream size                              : 12.9 MiB (0%)
  88. Title                                    : chs
  89. Language                                 : Chinese
  90. Default                                  : Yes
  91. Forced                                   : No
  92. Original source medium                   : Blu-ray
  93.  
  94. Text #3
  95. ID                                       : 5
  96. ID in the original source medium         : 4608 (0x1200)
  97. Format                                   : PGS
  98. Muxing mode                              : zlib
  99. Codec ID                                 : S_HDMV/PGS
  100. Codec ID/Info                            : Picture based subtitle format used on BDs/HD-DVDs
  101. Duration                                 : 1 h 32 min
  102. Bit rate                                 : 20.9 kb/s
  103. Count of elements                        : 1271
  104. Stream size                              : 13.9 MiB (0%)
  105. Title                                    : cht
  106. Language                                 : Chinese
  107. Default                                  : No
  108. Forced                                   : No
  109. Original source medium                   : Blu-ray
  110.  
  111. Text #4
  112. ID                                       : 6
  113. ID in the original source medium         : 4610 (0x1202)
  114. Format                                   : PGS
  115. Muxing mode                              : zlib
  116. Codec ID                                 : S_HDMV/PGS
  117. Codec ID/Info                            : Picture based subtitle format used on BDs/HD-DVDs
  118. Duration                                 : 1 h 32 min
  119. Bit rate                                 : 21.5 kb/s
  120. Count of elements                        : 1271
  121. Stream size                              : 14.3 MiB (0%)
  122. Title                                    : eng
  123. Language                                 : English
  124. Default                                  : No
  125. Forced                                   : No
  126. Original source medium                   : Blu-ray
  127.  
  128. Menu
  129. 00:00:00.000                             : en:Chapter 01
  130. 00:09:22.791                             : en:Chapter 02
  131. 00:17:20.875                             : en:Chapter 03
  132. 00:25:01.458                             : en:Chapter 04
  133. 00:34:35.041                             : en:Chapter 05
  134. 00:41:47.583                             : en:Chapter 06
  135. 00:46:20.833                             : en:Chapter 07
  136. 00:53:22.958                             : en:Chapter 08
  137. 01:05:10.125                             : en:Chapter 09
  138. 01:15:28.625                             : en:Chapter 10
  139. 01:21:45.791                             : en:Chapter 11
  140. 01:33:46.458                             : en:Chapter 12
  141.  
  142.  
  143.