Posted : 6 Days ago

  1. SAS.Red.Notice.2021.2160p.Remux.HEVC.HDR.DTS-HD.MA.5.1-playBD.mkv
  2. General
  3. Unique ID                                : 238127623945358195259557756035830735466 (0xB325B64FBD1669A72D5ABEAF0F11626A)
  4. Complete name                            : D:\SAS.Red.Notice.2021.2160p.Remux.HEVC.HDR.DTS-HD.MA.5.1-playBD.mkv
  5. Format                                   : Matroska
  6. Format version                           : Version 4
  7. File size                                : 44.2 GiB
  8. Duration                                 : 2 h 4 min
  9. Overall bit rate mode                    : Variable
  10. Overall bit rate                         : 51.1 Mb/s
  11. Encoded date                             : UTC 2021-05-01 07:29:14
  12. Writing application                      : mkvmerge v55.0.0 ('Waiting For Space') 64-bit
  13. Writing library                          : libebml v1.4.2 + libmatroska v1.6.4
  14.  
  15. Video
  16. ID                                       : 2
  17. Format                                   : HEVC
  18. Format/Info                              : High Efficiency Video Coding
  19. Format profile                           : Main [email protected]@High
  20. HDR format                               : SMPTE ST 2094 App 4, Version 1, HDR10+ Profile B compatible
  21. Codec ID                                 : V_MPEGH/ISO/HEVC
  22. Duration                                 : 2 h 4 min
  23. Bit rate                                 : 47.4 Mb/s
  24. Width                                    : 3 840 pixels
  25. Height                                   : 2 160 pixels
  26. Display aspect ratio                     : 16:9
  27. Frame rate mode                          : Constant
  28. Frame rate                               : 24.000 FPS
  29. Color space                              : YUV
  30. Chroma subsampling                       : 4:2:0 (Type 2)
  31. Bit depth                                : 10 bits
  32. Bits/(Pixel*Frame)                       : 0.238
  33. Stream size                              : 41.1 GiB (93%)
  34. Language                                 : English
  35. Default                                  : Yes
  36. Forced                                   : No
  37. Color range                              : Limited
  38. Color primaries                          : BT.2020
  39. Transfer characteristics                 : PQ
  40. Matrix coefficients                      : BT.2020 non-constant
  41. Mastering display color primaries        : Display P3
  42. Mastering display luminance              : min: 0.0001 cd/m2, max: 1000 cd/m2
  43. Maximum Content Light Level              : 2579 cd/m2
  44. Maximum Frame-Average Light Level        : 530 cd/m2
  45.  
  46. Audio
  47. ID                                       : 3
  48. Format                                   : DTS XLL
  49. Format/Info                              : Digital Theater Systems
  50. Commercial name                          : DTS-HD Master Audio
  51. Codec ID                                 : A_DTS
  52. Duration                                 : 2 h 4 min
  53. Bit rate mode                            : Variable
  54. Bit rate                                 : 3 622 kb/s
  55. Channel(s)                               : 6 channels
  56. Channel layout                           : C L R Ls Rs LFE
  57. Sampling rate                            : 48.0 kHz
  58. Frame rate                               : 93.750 FPS (512 SPF)
  59. Bit depth                                : 24 bits
  60. Compression mode                         : Lossless
  61. Stream size                              : 3.14 GiB (7%)
  62. Language                                 : English
  63. Default                                  : Yes
  64. Forced                                   : No
  65.  
  66. Text #1
  67. ID                                       : 1
  68. Format                                   : UTF-8
  69. Codec ID                                 : S_TEXT/UTF8
  70. Codec ID/Info                            : UTF-8 Plain Text
  71. Duration                                 : 1 h 57 min
  72. Bit rate                                 : 62 b/s
  73. Count of elements                        : 1453
  74. Stream size                              : 53.7 KiB (0%)
  75. Language                                 : Romanian
  76. Default                                  : Yes
  77. Forced                                   : No
  78.  
  79. Text #2
  80. ID                                       : 4
  81. Format                                   : UTF-8
  82. Codec ID                                 : S_TEXT/UTF8
  83. Codec ID/Info                            : UTF-8 Plain Text
  84. Duration                                 : 1 h 57 min
  85. Bit rate                                 : 53 b/s
  86. Count of elements                        : 1406
  87. Stream size                              : 46.3 KiB (0%)
  88. Language                                 : English
  89. Default                                  : No
  90. Forced                                   : No
  91.  
  92. Text #3
  93. ID                                       : 5
  94. Format                                   : PGS
  95. Codec ID                                 : S_HDMV/PGS
  96. Codec ID/Info                            : Picture based subtitle format used on BDs/HD-DVDs
  97. Duration                                 : 1 h 57 min
  98. Bit rate                                 : 40.5 kb/s
  99. Count of elements                        : 2432
  100. Stream size                              : 34.1 MiB (0%)
  101. Language                                 : German
  102. Default                                  : No
  103. Forced                                   : No
  104.  
  105. Menu
  106. 00:00:00.000                             : :Chapter 01
  107. 00:06:55.125                             : :Chapter 02
  108. 00:18:19.958                             : :Chapter 03
  109. 00:30:29.167                             : :Chapter 04
  110. 00:39:41.208                             : :Chapter 05
  111. 00:50:07.500                             : :Chapter 06
  112. 01:00:41.750                             : :Chapter 07
  113. 01:11:53.417                             : :Chapter 08
  114. 01:21:52.000                             : :Chapter 09
  115. 01:34:23.500                             : :Chapter 10
  116. 01:49:15.375                             : :Chapter 11
  117. 01:58:17.750                             : :Chapter 12
  118.  
  119.  
  120.